#TITLE:J219;
#SUBTITLE:SDO china lv22;
#ARTIST:Cranky;
#TITLETRANSLIT:;
#SUBTITLETRANSLIT:;
#ARTISTTRANSLIT:;
#CREDIT:[N]hok[Q];
#BANNER:bn.png;
#BACKGROUND:bg.png;
#LYRICSPATH:;
#CDTITLE:cd.png;
#MUSIC:J219.ogg;
#OFFSET:0.000;
#SAMPLESTART:37.500;
#SAMPLELENGTH:12.000;
#SELECTABLE:YES;
#BPMS:0.000=160.015,1.000=159.995,2.000=160.015,3.000=159.995,4.000=160.015,5.000=159.995,6.000=160.015,7.000=159.995,8.000=160.015,9.000=159.995,10.000=160.015,11.000=159.995,12.000=160.015,13.000=159.995,14.000=160.015,15.000=159.995,16.000=160.005,17.000=159.995,18.000=160.005,19.000=159.995,20.000=160.005,21.000=159.995,22.000=160.005,23.000=159.995,24.000=160.005,25.000=159.995,26.000=160.005,27.000=159.995,28.000=160.005,29.000=159.995,30.000=160.005,31.000=159.995,32.000=160.005,33.000=159.995,34.000=160.005,35.000=159.995,36.000=160.005,37.000=159.995,38.000=160.005,39.000=159.995,40.000=160.005,41.000=159.995,42.000=160.005,43.000=159.995,44.000=160.005,45.000=159.995,46.000=160.005,47.000=159.995,48.000=160.005,49.000=159.995,50.000=160.005,51.000=159.995,52.000=160.005,53.000=159.995,54.000=160.005,55.000=159.995,56.000=160.005,57.000=159.995,58.000=160.005,59.000=159.995,60.000=160.005,61.000=159.995,62.000=160.005,63.000=159.995,64.000=160.005,65.000=159.995,66.000=160.005,67.000=159.995,68.000=160.005,69.000=159.995,70.000=160.005,71.000=159.995,72.000=160.005,73.000=159.995,74.000=160.005,75.000=159.995,76.000=160.005,77.000=159.995,78.000=160.005,79.000=159.995,80.000=160.005,81.000=159.995,82.000=160.005,83.000=159.995,84.000=160.005,85.000=159.995,86.000=160.005,87.000=159.995,88.000=160.005,89.000=159.995,90.000=160.005,91.000=159.995,92.000=160.005,93.000=159.995,94.000=160.005,95.000=159.995,96.000=160.005,97.000=159.995,98.000=160.005,99.000=159.995,100.000=160.005,101.000=159.995,102.000=160.005,103.000=159.995,104.000=160.005,105.000=159.995,106.000=160.005,107.000=159.995,108.000=160.005,109.000=159.995,110.000=160.005,111.000=159.995,112.000=160.005,113.000=159.995,114.000=160.005,115.000=159.995,116.000=160.005,117.000=159.995,118.000=160.005,119.000=159.995,120.000=160.005,121.000=159.995,122.000=160.005,123.000=159.995,124.000=160.005,125.000=159.995,126.000=160.005,127.000=159.995,128.000=160.005,129.000=159.995,130.000=160.005,131.000=159.995,132.000=160.005,133.000=159.995,134.000=160.005,135.000=159.995,136.000=160.005,137.000=159.995,138.000=160.005,139.000=159.995,140.000=160.005,141.000=159.995,142.000=160.005,143.000=159.995,144.000=160.005,145.000=159.995,146.000=160.005,147.000=159.995,148.000=160.005,149.000=159.995,150.000=160.005,151.000=159.995,152.000=160.005,153.000=159.995,154.000=160.005,155.000=159.995,156.000=160.005,157.000=159.995,158.000=160.005,159.000=159.995,160.000=160.005,161.000=159.995,162.000=160.005,163.000=159.995,164.000=160.005,165.000=159.995,166.000=160.005,167.000=159.995,168.000=160.005,169.000=159.995,170.000=160.005,171.000=159.995,172.000=160.005,173.000=159.995,174.000=160.005,175.000=159.995,176.000=160.005,177.000=159.995,178.000=160.005,179.000=159.995,180.000=160.005,181.000=159.995,182.000=160.005,183.000=159.995,184.000=160.005,185.000=159.995,186.000=160.005,187.000=159.995,188.000=160.005,189.000=159.995,190.000=160.005,191.000=159.995,192.000=160.005,193.000=159.995,194.000=160.005,195.000=159.995,196.000=160.005,197.000=159.995,198.000=160.005,199.000=159.995,200.000=160.005,201.000=159.995,202.000=160.005,203.000=159.995,204.000=160.005,205.000=159.995,206.000=160.005,207.000=159.995,208.000=160.005,209.000=159.995,210.000=160.005,211.000=159.995,212.000=160.005,213.000=159.995,214.000=160.005,215.000=159.995,216.000=160.005,217.000=159.995,218.000=160.005,219.000=159.995,220.000=160.005,221.000=159.995,222.000=160.005,223.000=159.995,224.000=160.005,225.000=159.995,226.000=160.005,227.000=159.995,228.000=160.005,229.000=159.995,230.000=160.005,231.000=159.995,232.000=160.005,233.000=159.995,234.000=160.005,235.000=159.995,236.000=160.005,237.000=159.995,238.000=160.005,239.000=159.995,240.000=160.005,241.000=159.995,242.000=160.005,243.000=159.995,244.000=160.005,245.000=159.995,246.000=160.005,247.000=159.995,248.000=160.005,249.000=159.995,250.000=160.005,251.000=159.995,252.000=160.005,253.000=159.995,254.000=160.005,255.000=159.995,256.000=160.005,257.000=159.995,258.000=160.005,259.000=159.995,260.000=160.005,261.000=159.995,262.000=160.005,263.000=159.995,264.000=160.005,265.000=159.995,266.000=160.005,267.000=159.995,268.000=160.005,269.000=159.995,270.000=160.005,271.000=159.995,272.000=160.005,273.000=159.995,274.000=160.005,275.000=159.995,276.000=160.005,277.000=159.995,278.000=160.005,279.000=159.995,280.000=160.005,281.000=159.995,282.000=160.005,283.000=159.995,284.000=160.005,285.000=159.995,286.000=160.005,287.000=159.995,288.000=160.005,289.000=159.995,290.000=160.005,291.000=159.995,292.000=160.005,293.000=159.995,294.000=160.005,295.000=159.995,296.000=160.005,297.000=159.995,298.000=160.005,299.000=159.995,300.000=160.005,301.000=159.995,302.000=160.005,303.000=159.995,304.000=160.005,305.000=159.995,306.000=160.005,307.000=159.995;
#STOPS:;
#BGCHANGES:;
// cache tags:
#FIRSTBEAT:4.000;
#LASTBEAT:306.000;
#SONGFILENAME:Songs/9you/J219/J219.sm;
#HASMUSIC:1;
#HASBANNER:1;
#MUSICLENGTH:115.500;
// end cache tags

//---------------dance-single - ----------------
#NOTES:
     dance-single:
     :
     Hard:
     22:
     1.000,1.000,1.000,1.000,1.000,735.000,220.000,125.000,0.000,74.000:
0000
0000
0000
0000
,
1001
0000
0000
0000
0000
0000
0001
0010
0100
1000
0100
0010
1100
0000
0000
0101
0000
0000
0101
0000
0000
0000
0000
0000
,
0011
0000
0000
0000
0000
0000
0011
0000
0000
0000
0000
0000
1100
0000
0000
0000
0000
0000
0011
0000
0000
0000
0000
0000
0000
0000
0000
0000
0000
0000
0001
0000
0010
0000
0100
0000
1000
0000
0000
0010
0000
0000
0100
0000
0000
0001
0000
0000
,
1100
0000
0001
0000
1010
0000
0001
0000
0100
1000
0100
0000
0001
0000
1010
0000
,
0001
0100
1000
0100
0001
0000
1010
0000
0001
0100
1000
0100
0001
0000
1010
0000
,
0001
0000
1100
0000
0001
0000
1010
0000
0001
0100
1000
0100
0001
0000
1010
0000
,
0001
0100
1000
0100
0001
0000
1010
0000
0001
0100
1000
0100
0001
0000
1010
0000
,
0001
1000
0100
1000
0001
0000
0110
0000
0001
1000
0100
1000
0001
0000
0110
0000
,
0001
1000
0100
1000
0001
0000
0110
0000
0001
1000
0100
1000
0001
0000
0110
0000
,
0001
1000
0100
1000
0001
0000
0110
0000
0001
1000
0100
1000
0001
0000
0110
0000
,
0001
1000
0100
1000
0001
0000
0110
0000
0001
1000
0100
1000
0010
0100
1001
0110
,
1001
0010
1100
0000
0001
0000
1010
0000
0001
0100
1000
0100
0001
0000
1010
0000
,
0001
0100
1000
0100
0001
0000
1010
0000
0001
0100
1000
0100
0001
0000
1010
0000
,
0001
0000
1100
0000
0001
0000
1010
0000
0001
0100
1000
0100
0001
0000
1010
0000
,
0001
0100
1000
0100
0001
0000
1010
0000
0001
0100
1000
0100
0001
0000
1010
0000
,
0001
1000
0100
1000
0001
0000
0110
0000
0001
1000
0100
1000
0001
0000
0110
0000
,
0001
1000
0100
1000
0001
0000
0110
0000
0001
1000
0100
1000
0001
0000
0110
0000
,
0001
1000
0100
1000
0001
0000
0110
0000
0001
1000
0100
1000
0001
0000
0110
0000
,
0001
1000
0100
1000
0001
0000
0110
0000
0001
1000
0100
1000
0110
0000
1001
0100
,
1001
0000
0010
0000
1101
0000
0000
0000
1101
0000
0000
0000
0000
0000
0001
0010
1100
0000
0000
0000
0101
0000
0000
0000
0101
0000
0000
0000
0000
0000
0000
0000
,
0011
1000
0011
0000
1100
0000
0022
0000
0000
0000
0000
0000
0000
0000
0000
0033
,
1001
0100
0010
0100
0010
0001
1000
0010
0001
0100
0010
1000
0001
0100
0010
0100
,
0001
0100
0010
1000
0100
1000
0010
0001
0100
0001
1000
0001
0001
0100
0010
1000
,
0010
0100
0001
1000
0010
1000
0100
0010
1000
0001
0100
0010
0001
1000
0010
0100
,
1000
0100
0010
1000
0001
1000
0010
0100
0001
1000
0010
0100
0010
1000
0001
0100
,
1010
0100
0010
0001
1010
0100
0020
0000
1031
0010
0001
0100
1010
0100
0001
0100
,
1010
0100
0010
0100
1001
0010
0100
0001
1010
0001
0100
0001
1001
0010
0100
0010
,
1001
0100
0010
0100
1001
0100
0010
0100
1001
0100
0010
0100
1001
0100
0010
0100
,
0001
1000
0010
1000
0001
1000
0010
1000
0001
1000
0010
1000
0001
1000
0010
1000
,
0001
0001
0000
0100
0100
0000
0001
0001
0000
0100
1100
0000
0010
0000
1001
0000
,
1100
0010
0001
0100
1010
0001
0100
0010
1002
0000
0000
0000
1000
0000
0003
0000
,
1002
0000
0000
0000
1023
0000
0000
0031
1000
0001
0000
0001
1002
0000
0023
0000
,
1031
0100
0010
0100
1002
0000
0103
0010
1020
0000
0001
0000
1032
0000
0203
0000
,
1320
0000
0030
0000
1000
0000
0000
0000
1020
0000
0032
1000
1023
0000
1032
0000
,
1010
0103
0010
0002
1000
0103
0010
0000
1002
0000
0000
0000
1000
0000
0003
0000
,
1002
0000
0000
0000
1203
0000
0000
0301
1000
0001
0000
0001
1002
0000
0023
0000
,
1031
0100
0010
0100
1002
0000
0103
0010
1000
0100
0010
0100
1002
0000
0203
0000
,
1320
0000
0000
0000
1000
0000
0000
0000
1000
0001
0000
1000
0001
0000
1000
0130
,
1001
0000
0000
0000
0000
0000
1000
0000
0100
0000
1010
0000
1000
0100
0000
0001
,
1020
0000
0000
0000
1000
0000
0031
0000
1010
0000
0000
0100
1000
0000
0010
0000
,
1100
0000
2200
0000
0000
3300
0220
0000
0000
0330
0022
0000
0000
0000
0000
0033
,
0110
0000
0220
0000
0000
0330
0022
0000
0000
0033
0202
0000
0000
0000
1000
0313
,
1001
0000
0000
0000
1000
0000
0100
0000
1010
0000
0000
0000
0100
1000
0001
0000
,
1020
0000
0000
0000
1000
0000
0031
0000
1100
0000
0000
0010
1000
0000
0001
0000
,
1220
0000
0000
0000
1000
0330
0022
0000
1000
0000
0000
0033
1202
0000
0000
0303
,
1001
0000
0100
0000
1010
0000
1100
0010
1001
0000
0101
1000
0110
0000
1001
0000
,
0001
0000
1000
0100
0021
0000
1030
0100
0021
0000
0000
0030
0011
0000
0001
0000
,
1020
0000
0000
0000
1000
0030
0001
0000
1020
0000
0000
0030
2100
0000
0100
3000
,
1000
0000
0100
0010
1002
0000
0103
0010
1002
0000
0000
0003
1100
0000
0001
0000
,
1020
0000
0000
0030
1200
0000
0000
0300
1020
0000
0000
0030
2001
0000
0001
3000
,
1000
0000
0100
0010
1002
0000
0103
0010
1102
0000
0000
0003
1100
0000
0001
0000
,
1020
0000
0000
0000
1000
0030
0100
0000
1002
0000
0000
0003
2010
0000
0010
3000
,
0201
1000
0010
1000
0001
1000
0010
1000
,
0001
1000
0010
1000
0001
1000
0010
1000
,
0001
0000
1000
0000
0010
0000
1000
0000
0001
0000
1000
0000
0010
0000
1000
0300
,
1001
0001
0000
0010
1010
0000
0001
0001
0100
0010
1010
0000
0110
0000
1001
0000
,
0220
0000
0000
0330
0220
0000
0000
0330
2002
0000
0000
0000
0000
3003
2002
0000
,
0000
3003
2002
0000
3003
0000
0220
0000
0330
0000
0220
0000
0000
0330
1001
0000
,
0220
0000
0000
0330
0220
0000
0000
0330
1001
0000
0110
0000
0110
0000
2002
0000
,
0010
0000
0000
0000
0100
0000
0000
0010
0100
0000
0010
0100
0000
0000
0100
3003
,
1220
0000
0000
0330
1220
0000
0000
0330
2012
0000
0000
0000
0010
3003
2002
0000
,
3013
0000
2002
0000
3103
0000
0220
0000
1330
0001
0220
1000
0001
0330
1001
0000
,
1220
0000
0000
0330
1220
0000
0000
0330
1011
0000
0101
0000
1010
0000
2200
0000
,
0001
0001
0000
0010
0010
0000
0001
0001
0000
0010
0010
0000
0010
0000
0001
3300
,
1100
0010
0001
0100
1010
0001
0100
0010
1002
0000
0100
0000
1000
0000
0013
0000
,
1020
0000
0001
0030
1200
0000
0310
0001
1000
0001
0100
0001
1001
0010
0101
0010
,
1001
0100
0010
0100
1002
0000
0103
0010
1000
0010
0001
0100
1010
0100
0010
0001
,
1020
0000
0100
0000
1000
0000
0001
0030
1010
0100
0010
0001
1010
0100
0010
0001
,
1010
0100
1000
0100
2020
0000
0000
3030
1001
0010
0100
0010
2002
0000
3113
0000
,
2002
0000
0000
3003
0221
0000
0000
1330
0001
1000
0010
1000
0101
0010
0100
1000
,
0011
0100
0001
0010
2100
0000
3100
0010
0001
0100
0010
1000
0021
0000
0230
0000
,
0321
0001
1000
1000
0000
0001
0001
0000
1000
1000
0000
0000
0100
0000
1000
0000
,
0101
0101
0000
1100
1100
0000
0101
0101
0000
1100
1100
0000
0101
0000
1130
0000
,
1101
1101
0000
1110
1110
0000
0111
0111
0000
1110
1110
0000
0111
0000
1101
0000
,
2222
0000
0000
0000
,
0000
0000
0000
0000
,
0000
0000
3333
0000
,
0000
0000
0000
0000
;
